请选择 进入手机版 | 继续访问电脑版

YMLY-影迷乐园-特效字幕 蓝光原盘 1080P 高清动漫电影电视剧

 找回密码
 立即注册
搜索
查看: 183|回复: 4

[国产] [百度][1986-1996][VCD~8][狄仁杰断案传奇.2部全][国语无字][ISO][26.83GB]

[复制链接]
  • TA的每日心情
    奋斗
    2020-3-1 21:46
  • 签到天数: 446 天

    [LV.9]以坛为家II

    2702

    主题

    3220

    帖子

    9535

    积分

    影迷皇帝

    Rank: 20Rank: 20Rank: 20Rank: 20Rank: 20

    积分
    9535

    贵族勋章土豪勋章小土豪勋章主题达人百分百好孩子内测勋章最佳新人影迷女神十二生肖之猪水瓶座勋章富甲一方

    发表于 2019-8-8 08:51:53 | 显示全部楼层 |阅读模式


    ◎片  名 狄仁杰断案传奇
    ◎年  代 1986
    ◎产  地 中国大陆
    ◎类  别 剧情 / 悬疑 / 古装
    ◎语  言 普通话/国语
    ◎上映日期 1986(中国大陆)
    ◎豆瓣评分 8.9/10 from 674 users
    ◎豆瓣链接 https://movie.douban.com/subject/4160349/
    ◎集  数 14
    ◎片  长 50分钟
    ◎导  演 孙伟
    ◎编  剧 高罗佩 Robert van Gulik
    ◎主  演 孙承政 Chengzheng Sun


    ◎标  签 悬疑 | 狄仁杰 | 推理 | 国产电视剧 | 古装 | 经典 | 电视剧 | 中国

    ◎简  介  

      大唐名相狄仁杰,幽州太原人。唐高宗及武则天当政期间历任大理寺城御史、刺史,乃至宰相等职。一生为官廉洁奉公、政绩昭着、朝野闻名。据唐书记载,仪奉年迁大理寺城,年内断治愈一万七千人,无一怨诉者。刺史惊人功绩更被世人传为美谈。
    此片所描述的正是有关他断案时惊心动魄的场面及被世人所皆知的传奇故事。
    玉珠串 (1-4集)
    黄金案 (5-7集)
    莲花池 (8集)
    断指记 (9-10集)
    四漆屏 (11-14集)
    1. General
    2. Format                         : MPEG-PS
    3. File size                      : 1 024 MiB
    4. Duration                       : 27 min 48 s
    5. Overall bit rate mode          : Constant
    6. Overall bit rate               : 5 147 kb/s

    7. Video
    8. ID                             : 224 (0xE0)
    9. Format                         : MPEG Video
    10. Format version                 : Version 1
    11. Format settings, BVOP          : Yes
    12. Format settings, Matrix        : Custom
    13. Format settings, GOP           : Variable
    14. Duration                       : 27 min 48 s
    15. Bit rate mode                  : Constant
    16. Bit rate                       : 4 917 kb/s
    17. Maximum bit rate               : 1 140 kb/s
    18. Width                          : 352 pixels
    19. Height                         : 288 pixels
    20. Display aspect ratio           : 4:3
    21. Frame rate                     : 25.000 FPS
    22. Standard                       : PAL
    23. Color space                    : YUV
    24. Chroma subsampling             : 4:2:0
    25. Bit depth                      : 8 bits
    26. Scan type                      : Progressive
    27. Compression mode               : Lossy
    28. Bits/(Pixel*Frame)             : 1.940
    29. Time code of first frame       : 00:00:00:00
    30. Time code source               : Group of pictures header
    31. GOP, Open/Closed               : Open
    32. GOP, Open/Closed of first fram : Closed
    33. Stream size                    : 978 MiB (96%)

    34. Audio
    35. ID                             : 192 (0xC0)
    36. Format                         : MPEG Audio
    37. Format version                 : Version 1
    38. Format profile                 : Layer 2
    39. Duration                       : 27 min 48 s
    40. Bit rate mode                  : Constant
    41. Bit rate                       : 128 kb/s
    42. Channel(s)                     : 2 channels
    43. Sampling rate                  : 48.0 kHz
    44. Compression mode               : Lossy
    45. Stream size                    : 25.5 MiB (2%)

    46. Menu
    复制代码






    购买主题 本主题需向作者支付 20 大洋 才能浏览
    回复

    使用道具 举报

  • TA的每日心情
    开心
    2020-3-25 21:55
  • 签到天数: 116 天

    [LV.6]常住居民II

    1

    主题

    972

    帖子

    138

    积分

    中级影迷

    Rank: 3Rank: 3

    积分
    138
    发表于 2019-8-8 15:16:26 | 显示全部楼层
    这个好像还有点恐怖
    回复

    使用道具 举报

  • TA的每日心情
    奋斗
    昨天 09:55
  • 签到天数: 337 天

    [LV.8]以坛为家I

    33

    主题

    3879

    帖子

    375

    积分

    超级影迷

    Rank: 6Rank: 6

    积分
    375
    发表于 2019-8-9 06:46:03 | 显示全部楼层
    最爱狄仁杰,感谢分享。
    回复

    使用道具 举报

  • TA的每日心情
    开心
    2020-3-22 10:18
  • 签到天数: 207 天

    [LV.7]常住居民III

    10

    主题

    2263

    帖子

    760

    积分

    专业影迷

    Rank: 8Rank: 8

    积分
    760

    小土豪勋章土豪勋章

    发表于 2019-8-9 09:16:12 | 显示全部楼层
    谢谢分享啊
    1
    回复

    使用道具 举报

  • TA的每日心情
    奋斗
    2019-9-30 14:43
  • 签到天数: 43 天

    [LV.5]常住居民I

    2

    主题

    597

    帖子

    80

    积分

    中级影迷

    Rank: 3Rank: 3

    积分
    80
    发表于 2019-8-14 19:28:25 | 显示全部楼层

    感谢分享好资源!
    回复

    使用道具 举报

    您需要登录后才可以回帖 登录 | 立即注册

    本版积分规则

    QQ|Archiver|手机版|小黑屋|影迷乐园  

    GMT+8, 2020-4-4 04:38 , Processed in 0.138846 second(s), 31 queries .

    Powered by Discuz! X3.3

    © 2001-2017 Comsenz Inc.

    快速回复 返回顶部 返回列表