请选择 进入手机版 | 继续访问电脑版

YMLY-影迷乐园-特效字幕 蓝光原盘 1080P 高清动漫电影电视剧

 找回密码
 立即注册
搜索
查看: 160|回复: 5

[国产] [百度][2005][DVD5~14][把酒问青天.傲剑江湖][国语中字][于波.杨俊毅][ISO][54.31GB]

[复制链接]
  • TA的每日心情
    奋斗
    2020-3-1 21:46
  • 签到天数: 446 天

    [LV.9]以坛为家II

    2702

    主题

    3220

    帖子

    9535

    积分

    影迷皇帝

    Rank: 20Rank: 20Rank: 20Rank: 20Rank: 20

    积分
    9535

    贵族勋章土豪勋章小土豪勋章主题达人百分百好孩子内测勋章最佳新人影迷女神十二生肖之猪水瓶座勋章富甲一方

    发表于 2019-8-7 00:30:02 | 显示全部楼层 |阅读模式


    ◎译  名 傲剑江湖
    ◎片  名 把酒问青天
    ◎年  代 2005
    ◎产  地 中国大陆
    ◎类  别 剧情 / 动作 / 爱情 / 武侠 / 古装
    ◎语  言 汉语普通话
    ◎豆瓣评分 8.2/10 from 530 users
    ◎豆瓣链接 https://movie.douban.com/subject/2333676/
    ◎集  数 46
    ◎片  长 45分钟
    ◎导  演 李达超
    ◎编  剧 陈曼玲
    ◎主  演 于波
          杨俊毅
          徐怀钰
          周海媚
          张晋 Jin Zhang
          杨光 Guang Yang


    ◎标  签 武侠 | 古装 | 杨俊毅 | 电视剧 | 国产电视剧 | 把酒问青天 | 于波 | 大陆电视剧

    ◎简  介  

      展颢——大宋朝一员功勋彪炳的边关将军,爱国爱民,从未想到有一天,自己战场杀敌的刀,必须拿来杀戮自己的百姓,只为了花尽国库银的昏君意欲抢夺一座铁矿山,好就近开采冶炼以应军需之急。
    三道密旨的催逼下,展颢不得不奉命屠了不肯让出铁矿山的赵家村,展颢即将临盆的妻子赶去阻止却被误杀,临死前产下一子,为县令方子庵所救,取名方旭,视若己出的抚养成人。而展颢却因方子庵拿着万民陈情书上京告御状,屠村惨案在朝野中闹得沸沸扬扬,不得不做了皇帝的替罪羊,以叛国罪入狱,展氏一族满门抄斩。侥幸逃出生天的展颢闯入太子宫中,带走即将弥耳的长皇孙,取名余火莲,从此立誓必以皇室血脉之手,推翻大宋朝廷。
    二十年后,太子仁宗即位,余火链一举夺下开状元功名,入朝为官,并与如今已贵为御史中丞的方子庵之女方离相识相恋。而方旭亦在子庵教养下,长成为坦荡磊落,嫉恶如仇之人,在帮助父亲查案过程中,与京师第一青楼“御香斋”的红姑娘李柏化敌为友,进而相亲相爱。
    火莲与方旭武艺相当,性情相投,又因方离之故成为惺惺相惜的好友。与此同时,朝官被害的案件不断发生,在新任开封府尹包拯调查下,箭头终于指向一个神秘的民间叛乱组织“无间道”及贼道“地藏王”。方旭奉皇命假作弑父,亡命天涯被“无间道”收容。逐步打入组织核心,但也因此而受尽委屈,与李柏的恋情更是一波三折,饱受考验。
    火莲一心抱着颠覆宋朝的使命而来,却发现仁宗、子庵、包拯等人并不是想象中的那么残暴,但父命难违,火莲时时扎于矛盾痛苦之中,幸赖方离的坚强与支持,方能度过重重心理难关。
    方旭日渐为地藏王赏识重用,狂放的火莲亦受到仁宗的欣赏及包容,两对父子在互不知血缘之亲的情况下,走过一路相互较劲的恩怨风雨。
    最终在包拯及方旭查证下,真相大白,地藏王即为当年的大将军展颢,亦是方旭之亲生父亲。方旭虽得认祖归宗,更名展昭,但展颢却为了让追随自己的千万手下能死心散去,解甲归田,无怨无悔的选择了自尽身亡。
    火莲虽贵为太子,但仁宗为了朝廷国家,不能暴露当年先皇罪行,亦不能让火莲回到宫中,展氏一族横亘二十年的冤屈虽得昭雪,但许多遗憾却已无法弥补……
    1. General
    2. Format                         : MPEG-PS
    3. File size                      : 1 024 MiB
    4. Duration                       : 31 min 54 s
    5. Overall bit rate mode          : Constant
    6. Overall bit rate               : 4 487 kb/s

    7. Video
    8. ID                             : 224 (0xE0)
    9. Format                         : MPEG Video
    10. Format version                 : Version 2
    11. Format profile                 : Main@Main
    12. Format settings, BVOP          : Yes
    13. Format settings, Matrix        : Custom
    14. Format settings, GOP           : Variable
    15. Format settings, picture struc : Frame
    16. Duration                       : 31 min 54 s
    17. Bit rate mode                  : Constant
    18. Bit rate                       : 4 000 kb/s
    19. Width                          : 720 pixels
    20. Height                         : 576 pixels
    21. Display aspect ratio           : 4:3
    22. Frame rate                     : 25.000 FPS
    23. Standard                       : PAL
    24. Color space                    : YUV
    25. Chroma subsampling             : 4:2:0
    26. Bit depth                      : 8 bits
    27. Scan type                      : Interlaced
    28. Scan order                     : Bottom Field First
    29. Compression mode               : Lossy
    30. Bits/(Pixel*Frame)             : 0.386
    31. Time code of first frame       : 00:00:00:00
    32. Time code source               : Group of pictures header
    33. GOP, Open/Closed               : Open
    34. GOP, Open/Closed of first fram : Closed
    35. Stream size                    : 916 MiB (89%)

    36. Audio
    37. ID                             : 189 (0xBD)-128 (0x80)
    38. Format                         : AC-3
    39. Format/Info                    : Audio Coding 3
    40. Format settings, Endianness    : Big
    41. Muxing mode                    : DVD-Video
    42. Duration                       : 31 min 53 s
    43. Bit rate mode                  : Constant
    44. Bit rate                       : 384 kb/s
    45. Channel(s)                     : 6 channels
    46. Channel positions              : Front: L C R, Side: L R, LFE
    47. Sampling rate                  : 48.0 kHz
    48. Frame rate                     : 31.250 FPS (1536 spf)
    49. Bit depth                      : 16 bits
    50. Compression mode               : Lossy
    51. Stream size                    : 87.6 MiB (9%)
    52. Service kind                   : Complete Main

    53. Menu
    复制代码










    购买主题 本主题需向作者支付 30 大洋 才能浏览
    回复

    使用道具 举报

  • TA的每日心情
    开心
    2020-3-22 10:18
  • 签到天数: 207 天

    [LV.7]常住居民III

    10

    主题

    2263

    帖子

    760

    积分

    专业影迷

    Rank: 8Rank: 8

    积分
    760

    小土豪勋章土豪勋章

    发表于 2019-8-7 08:56:36 | 显示全部楼层
    感谢分享。。。。。。。。。。。。。。。。
    1
    回复

    使用道具 举报

  • TA的每日心情
    开心
    2020-3-25 21:55
  • 签到天数: 116 天

    [LV.6]常住居民II

    1

    主题

    972

    帖子

    138

    积分

    中级影迷

    Rank: 3Rank: 3

    积分
    138
    发表于 2019-8-7 15:38:20 | 显示全部楼层
    非常感谢!
    回复

    使用道具 举报

  • TA的每日心情
    奋斗
    2019-9-30 14:43
  • 签到天数: 43 天

    [LV.5]常住居民I

    2

    主题

    597

    帖子

    80

    积分

    中级影迷

    Rank: 3Rank: 3

    积分
    80
    发表于 2019-8-14 19:27:44 | 显示全部楼层

    感谢分享好资源!
    回复

    使用道具 举报

  • TA的每日心情

    昨天 16:54
  • 签到天数: 70 天

    [LV.6]常住居民II

    3

    主题

    383

    帖子

    131

    积分

    中级影迷

    Rank: 3Rank: 3

    积分
    131
    发表于 2020-2-16 15:02:21 | 显示全部楼层
    回复

    使用道具 举报

  • TA的每日心情
    擦汗
    5 小时前
  • 签到天数: 43 天

    [LV.5]常住居民I

    2

    主题

    278

    帖子

    76

    积分

    中级影迷

    Rank: 3Rank: 3

    积分
    76
    发表于 2020-3-18 17:55:05 | 显示全部楼层
    于波杨俊毅主演
    回复

    使用道具 举报

    您需要登录后才可以回帖 登录 | 立即注册

    本版积分规则

    QQ|Archiver|手机版|小黑屋|影迷乐园  

    GMT+8, 2020-4-4 05:15 , Processed in 0.145289 second(s), 33 queries .

    Powered by Discuz! X3.3

    © 2001-2017 Comsenz Inc.

    快速回复 返回顶部 返回列表