请选择 进入手机版 | 继续访问电脑版

YMLY-影迷乐园-特效字幕 蓝光原盘 1080P 高清动漫电影电视剧

 找回密码
 立即注册
搜索
查看: 145|回复: 3

[国产] [百度][2005][DVD5~10][厨子当官][国语中字][李保田.李大强][ISO][37.78GB]

[复制链接]
  • TA的每日心情
    奋斗
    2020-3-1 21:46
  • 签到天数: 446 天

    [LV.9]以坛为家II

    2702

    主题

    3220

    帖子

    9533

    积分

    影迷皇帝

    Rank: 20Rank: 20Rank: 20Rank: 20Rank: 20

    积分
    9533

    贵族勋章土豪勋章小土豪勋章主题达人百分百好孩子内测勋章最佳新人影迷女神十二生肖之猪水瓶座勋章富甲一方

    发表于 2019-7-20 23:10:38 | 显示全部楼层 |阅读模式


    ◎片  名 厨子当官
    ◎年  代 2005
    ◎产  地 中国大陆
    ◎类  别 剧情 / 古装
    ◎语  言 汉语普通话
    ◎上映日期 2005
    ◎豆瓣评分 7.2/10 from 187 users
    ◎豆瓣链接 https://movie.douban.com/subject/4922830/
    ◎集  数 30
    ◎导  演 张绍林 Shaolin Zhang
    ◎编  剧 路远 Yuan Lu
    ◎主  演 李保田 Baotian Li
          李大强 Daqiang Li
          王璐瑶 Luyao Wang
          田海蓉 Hairong Tian
          李明启 Mingqi Li
          舒畅 Chang Shu


    ◎标  签 国产电视剧 | 电视剧 | 美食 | 推理 | 童年回忆 | 大陆 | 童年 | 中国

    ◎简  介  

      光绪年间,香河县知县马东阳被暗杀。西太后欲派身边御厨牛不耕接任知县,光绪反对。于是二人各派一厨子走马上任,分单双日坐堂审案。李保田扮演的神厨与御厨因为权势和厨艺展开了明争暗斗,全剧由两人争乌纱,比拼断案引出一连串啼笑皆非的故事。
    1. General
    2. Format                         : MPEG-PS
    3. File size                      : 1 024 MiB
    4. Duration                       : 41 min 15 s
    5. Overall bit rate mode          : Variable
    6. Overall bit rate               : 3 469 kb/s

    7. Video
    8. ID                             : 224 (0xE0)
    9. Format                         : MPEG Video
    10. Format version                 : Version 2
    11. Format profile                 : Main@Main
    12. Format settings, BVOP          : Yes
    13. Format settings, Matrix        : Custom
    14. Format settings, GOP           : Variable
    15. Format settings, picture struc : Frame
    16. Duration                       : 41 min 15 s
    17. Bit rate mode                  : Variable
    18. Bit rate                       : 3 208 kb/s
    19. Maximum bit rate               : 9 800 kb/s
    20. Width                          : 720 pixels
    21. Height                         : 576 pixels
    22. Display aspect ratio           : 4:3
    23. Frame rate                     : 25.000 FPS
    24. Standard                       : PAL
    25. Color space                    : YUV
    26. Chroma subsampling             : 4:2:0
    27. Bit depth                      : 8 bits
    28. Scan type                      : Interlaced
    29. Scan order                     : Top Field First
    30. Compression mode               : Lossy
    31. Bits/(Pixel*Frame)             : 0.309
    32. Time code of first frame       : 00:00:00:00
    33. Time code source               : Group of pictures header
    34. Stream size                    : 947 MiB (92%)

    35. Audio
    36. ID                             : 189 (0xBD)-128 (0x80)
    37. Format                         : AC-3
    38. Format/Info                    : Audio Coding 3
    39. Format settings, Endianness    : Big
    40. Muxing mode                    : DVD-Video
    41. Duration                       : 41 min 15 s
    42. Bit rate mode                  : Constant
    43. Bit rate                       : 192 kb/s
    44. Channel(s)                     : 3 channels
    45. Channel positions              : Front: L R, LFE
    46. Sampling rate                  : 48.0 kHz
    47. Frame rate                     : 31.250 FPS (1536 spf)
    48. Bit depth                      : 16 bits
    49. Compression mode               : Lossy
    50. Stream size                    : 56.7 MiB (6%)
    51. Service kind                   : Complete Main

    52. Menu
    复制代码






    购买主题 本主题需向作者支付 30 大洋 才能浏览
    回复

    使用道具 举报

  • TA的每日心情
    奋斗
    昨天 09:55
  • 签到天数: 337 天

    [LV.8]以坛为家I

    33

    主题

    3879

    帖子

    375

    积分

    超级影迷

    Rank: 6Rank: 6

    积分
    375
    发表于 2019-7-21 00:01:59 | 显示全部楼层
    嘿嘿,喜欢喜欢!支持。
    回复

    使用道具 举报

  • TA的每日心情
    慵懒
    6 天前
  • 签到天数: 96 天

    [LV.6]常住居民II

    2

    主题

    536

    帖子

    96

    积分

    中级影迷

    Rank: 3Rank: 3

    积分
    96
    发表于 2019-7-21 12:40:52 | 显示全部楼层
    支持支持。
    回复

    使用道具 举报

  • TA的每日心情
    开心
    2020-3-25 21:55
  • 签到天数: 116 天

    [LV.6]常住居民II

    1

    主题

    972

    帖子

    138

    积分

    中级影迷

    Rank: 3Rank: 3

    积分
    138
    发表于 2019-7-21 22:43:05 | 显示全部楼层
    李保田演的真好。
    回复

    使用道具 举报

    您需要登录后才可以回帖 登录 | 立即注册

    本版积分规则

    QQ|Archiver|手机版|小黑屋|影迷乐园  

    GMT+8, 2020-4-4 03:36 , Processed in 0.137601 second(s), 30 queries .

    Powered by Discuz! X3.3

    © 2001-2017 Comsenz Inc.

    快速回复 返回顶部 返回列表