请选择 进入手机版 | 继续访问电脑版

YMLY-影迷乐园-特效字幕 蓝光原盘 1080P 高清动漫电影电视剧

 找回密码
 立即注册
搜索
查看: 161|回复: 5

[香港] [百度][1997][DVD5~2][东方母亲][国语无字][张敏.刘美娟][VOB][8.32GB]

[复制链接]
  • TA的每日心情
    奋斗
    2020-3-1 21:46
  • 签到天数: 446 天

    [LV.9]以坛为家II

    2702

    主题

    3220

    帖子

    9533

    积分

    影迷皇帝

    Rank: 20Rank: 20Rank: 20Rank: 20Rank: 20

    积分
    9533

    贵族勋章土豪勋章小土豪勋章主题达人百分百好孩子内测勋章最佳新人影迷女神十二生肖之猪水瓶座勋章富甲一方

    发表于 2019-8-8 08:54:11 | 显示全部楼层 |阅读模式

    ◎片  名 东方母亲
    ◎年  代 1997
    ◎产  地 香港
    ◎类  别 传记
    ◎语  言 汉语普通话 / 粤语
    ◎上映日期 1997
    ◎豆瓣评分 7.8/10 from 612 users
    ◎豆瓣链接 https://movie.douban.com/subject/3076678/
    ◎集  数 22
    ◎导  演 曾丽珍
    ◎主  演 张敏
           刘美娟 Eugina Lau
           何超仪 Josie Ho
           林聪 Chung Lam
           贾云 Yun Jia
           汤镇宗 Chun-Chung Tong
           汤镇业 Ken Tong


    ◎标  签 电视剧 | 张敏 | 国产电视剧 | 女人花 | 东方母亲 | 1998 | 童年回忆 | 汤镇业

    ◎简  介  

      朗天雅(张敏 饰)、范小青(刘美娟 饰)和施建南(汤镇宗 饰)是在同一个地方插队的三名年轻人,闭塞的环境中,单纯善良的天雅和小青同时喜欢上了建南。之后,天雅跟随着大哥天赐(汤镇业 饰)来到了香港,在这里,她结识了名为庄伟(张国强 饰)的男子,两人组建了家庭。
      然而,建南的突然到来让天雅乱了方寸,她发现自己的内心里依然保留着对建南的感情。庄伟的意外死亡让天雅心碎,她带着两个女儿离开了香港,离开这段悲伤的回忆。之后,天雅邂逅了一直暗恋她的大川(孙国明 饰),又误打误撞的收养了第三个女儿,随着时间的推移,女儿们渐渐长大,新的问题又出现了。
    1. General
    2. Format                         : MPEG-PS
    3. File size                      : 1 000 MiB
    4. Duration                       : 19 min 44 s
    5. Overall bit rate mode          : Variable
    6. Overall bit rate               : 7 081 kb/s
    7. Writing library                : encoded by TMPGEnc 4.0 XPress Version. 4.2.3.193

    8. Video
    9. ID                             : 224 (0xE0)
    10. Format                         : MPEG Video
    11. Format version                 : Version 2
    12. Format profile                 : Main@Main
    13. Format settings, BVOP          : Yes
    14. Format settings, Matrix        : Custom
    15. Format settings, GOP           : Variable
    16. Duration                       : 19 min 44 s
    17. Bit rate mode                  : Variable
    18. Bit rate                       : 6 908 kb/s
    19. Maximum bit rate               : 1 250 kb/s
    20. Width                          : 352 pixels
    21. Height                         : 288 pixels
    22. Display aspect ratio           : 4:3
    23. Frame rate                     : 25.000 FPS
    24. Standard                       : PAL
    25. Color space                    : YUV
    26. Chroma subsampling             : 4:2:0
    27. Bit depth                      : 8 bits
    28. Scan type                      : Progressive
    29. Compression mode               : Lossy
    30. Bits/(Pixel*Frame)             : 2.726
    31. Time code of first frame       : 00:00:00:00
    32. Time code source               : Group of pictures header
    33. GOP, Open/Closed               : Open
    34. GOP, Open/Closed of first fram : Closed
    35. Stream size                    : 975 MiB (98%)
    36. Writing library                : TMPGEnc XPress 4.2.3.193
    37. Color primaries                : BT.601 PAL
    38. Transfer characteristics       : BT.470 System B, BT.470 System G
    39. Matrix coefficients            : BT.601

    40. Audio
    41. ID                             : 192 (0xC0)
    42. Format                         : MPEG Audio
    43. Format version                 : Version 1
    44. Format profile                 : Layer 2
    45. Duration                       : 19 min 44 s
    46. Bit rate mode                  : Constant
    47. Bit rate                       : 32.0 kb/s
    48. Channel(s)                     : 1 channel
    49. Sampling rate                  : 48.0 kHz
    50. Compression mode               : Lossy
    51. Stream size                    : 4.52 MiB (0%)

    52. Menu
    复制代码







    购买主题 本主题需向作者支付 10 大洋 才能浏览
    回复

    使用道具 举报

  • TA的每日心情
    开心
    2020-3-25 21:55
  • 签到天数: 116 天

    [LV.6]常住居民II

    1

    主题

    972

    帖子

    138

    积分

    中级影迷

    Rank: 3Rank: 3

    积分
    138
    发表于 2019-8-8 15:15:52 | 显示全部楼层
    张敏好美!
    回复

    使用道具 举报

  • TA的每日心情
    奋斗
    昨天 09:55
  • 签到天数: 337 天

    [LV.8]以坛为家I

    33

    主题

    3879

    帖子

    375

    积分

    超级影迷

    Rank: 6Rank: 6

    积分
    375
    发表于 2019-8-9 06:45:23 | 显示全部楼层
    很好很好 谢谢!
    回复

    使用道具 举报

  • TA的每日心情
    开心
    2020-3-22 10:18
  • 签到天数: 207 天

    [LV.7]常住居民III

    10

    主题

    2263

    帖子

    760

    积分

    专业影迷

    Rank: 8Rank: 8

    积分
    760

    小土豪勋章土豪勋章

    发表于 2019-8-9 09:16:41 | 显示全部楼层
    谢谢分享啊
    1
    回复

    使用道具 举报

  • TA的每日心情
    奋斗
    2019-9-30 14:43
  • 签到天数: 43 天

    [LV.5]常住居民I

    2

    主题

    597

    帖子

    80

    积分

    中级影迷

    Rank: 3Rank: 3

    积分
    80
    发表于 2019-8-14 19:29:27 | 显示全部楼层

    感谢分享好资源!
    回复

    使用道具 举报

  • TA的每日心情

    昨天 16:54
  • 签到天数: 70 天

    [LV.6]常住居民II

    3

    主题

    383

    帖子

    131

    积分

    中级影迷

    Rank: 3Rank: 3

    积分
    131
    发表于 2020-2-16 15:01:53 | 显示全部楼层
    回复

    使用道具 举报

    您需要登录后才可以回帖 登录 | 立即注册

    本版积分规则

    QQ|Archiver|手机版|小黑屋|影迷乐园  

    GMT+8, 2020-4-4 03:55 , Processed in 0.150182 second(s), 31 queries .

    Powered by Discuz! X3.3

    © 2001-2017 Comsenz Inc.

    快速回复 返回顶部 返回列表