请选择 进入手机版 | 继续访问电脑版

YMLY-影迷乐园-特效字幕 蓝光原盘 1080P 高清动漫电影电视剧

 找回密码
 立即注册
搜索
查看: 202|回复: 5

[国产] [百度][2000][DVD5~13][春光灿烂猪八戒][国语无字][徐峥.陶虹][ISO][56.19GB]

[复制链接]
  • TA的每日心情
    奋斗
    2020-3-1 21:46
  • 签到天数: 446 天

    [LV.9]以坛为家II

    2702

    主题

    3220

    帖子

    9533

    积分

    影迷皇帝

    Rank: 20Rank: 20Rank: 20Rank: 20Rank: 20

    积分
    9533

    贵族勋章土豪勋章小土豪勋章主题达人百分百好孩子内测勋章最佳新人影迷女神十二生肖之猪水瓶座勋章富甲一方

    发表于 2019-7-20 23:07:23 | 显示全部楼层 |阅读模式


    ◎译  名 Sunny Piggy
    ◎片  名 春光灿烂猪八戒
    ◎年  代 2000
    ◎产  地 中国大陆
    ◎类  别 剧情 / 喜剧 / 武侠 / 古装
    ◎语  言 汉语普通话
    ◎上映日期 2000
    ◎豆瓣评分 7.4/10 from 51580 users
    ◎豆瓣链接 https://movie.douban.com/subject/2270545/
    ◎集  数 38
    ◎片  长 45分钟
    ◎导  演 范小天 Xiaotian Fan / 叶崇铭 / 梦继 Ji Meng
    ◎编  剧 张炭 Cheung Tan
    ◎主  演 徐峥 Zheng Xu
          陶虹 Hong Tao
          孙兴 Hing Suen
          李立群 Lichun Lee
          陈红 Hong Chen
          翁虹 Yvonne Yung Hung
          屈中恒 Chung-heng Chu
          钮承泽 Doze Niu
          嘉玲 Jia Ling
          王伯昭 Bozhao Wang
          戴春荣 Chunrong Dai
          金巧巧 Qiaoqiao Jin


    ◎标  签 电视剧 | 国产电视剧 | 徐铮 | 陶虹 | 春光灿烂猪八戒 | 大陆 | 喜剧 | 中国

    ◎简  介  

      这是一部戏说猪八戒的连续剧。八戒(徐峥 饰)原是一只平凡的小猪,因为想逃脱被宰杀的命运而千方百计从猪圈里逃了出来。一日,八戒偶遇了因追杀九尾猫妖(翁虹 饰)而来到人间的太白金星(孙兴 饰),此时太白金星正身陷囫囵,机智的八戒出手救了他。太白金星感激八戒,于是施法让他当一天人,咒语念动,八戒摇身变成了他的主人——英俊的朱书生的模样。
    变成了人样的八戒不想再重新变回猪,于是逃走了。为了能躲过法力高强的太白金星的追捕,八戒边逃跑、边到处学艺,功夫果然也有了飞速的增长。随后,太白金星的内伤复发,功力失去了一大半,见此情景,太上老君赐予了八戒神功,让他和太白金星一起消灭猫妖!
    1. General
    2. Format                         : MPEG-PS
    3. File size                      : 1 024 MiB
    4. Duration                       : 27 min 9 s
    5. Overall bit rate mode          : Constant
    6. Overall bit rate               : 5 271 kb/s

    7. Video
    8. ID                             : 224 (0xE0)
    9. Format                         : MPEG Video
    10. Format version                 : Version 2
    11. Format profile                 : Main@Main
    12. Format settings, BVOP          : Yes
    13. Format settings, Matrix        : Default
    14. Format settings, GOP           : M=3, N=13
    15. Format settings, picture struc : Frame
    16. Duration                       : 27 min 9 s
    17. Bit rate mode                  : Constant
    18. Bit rate                       : 4 782 kb/s
    19. Maximum bit rate               : 4 400 kb/s
    20. Width                          : 720 pixels
    21. Height                         : 576 pixels
    22. Display aspect ratio           : 4:3
    23. Frame rate                     : 25.000 FPS
    24. Standard                       : PAL
    25. Color space                    : YUV
    26. Chroma subsampling             : 4:2:0
    27. Bit depth                      : 8 bits
    28. Scan type                      : Interlaced
    29. Scan order                     : Top Field First
    30. Compression mode               : Lossy
    31. Bits/(Pixel*Frame)             : 0.461
    32. Time code of first frame       : 00:06:55:16
    33. Time code source               : Group of pictures header
    34. GOP, Open/Closed               : Open
    35. Stream size                    : 929 MiB (91%)
    36. Color primaries                : BT.601 PAL
    37. Transfer characteristics       : BT.470 System B, BT.470 System G
    38. Matrix coefficients            : BT.601

    39. Audio #1
    40. ID                             : 189 (0xBD)-128 (0x80)
    41. Format                         : AC-3
    42. Format/Info                    : Audio Coding 3
    43. Format settings, Endianness    : Big
    44. Muxing mode                    : DVD-Video
    45. Duration                       : 27 min 9 s
    46. Bit rate mode                  : Constant
    47. Bit rate                       : 192 kb/s
    48. Channel(s)                     : 2 channels
    49. Channel positions              : Front: L R
    50. Sampling rate                  : 48.0 kHz
    51. Frame rate                     : 31.250 FPS (1536 spf)
    52. Bit depth                      : 16 bits
    53. Compression mode               : Lossy
    54. Stream size                    : 37.3 MiB (4%)
    55. Service kind                   : Complete Main

    56. Audio #2
    57. ID                             : 189 (0xBD)-129 (0x81)
    58. Format                         : AC-3
    59. Format/Info                    : Audio Coding 3
    60. Format settings, Endianness    : Big
    61. Muxing mode                    : DVD-Video
    62. Duration                       : 27 min 9 s
    63. Bit rate mode                  : Constant
    64. Bit rate                       : 192 kb/s
    65. Channel(s)                     : 2 channels
    66. Channel positions              : Front: L R
    67. Sampling rate                  : 48.0 kHz
    68. Frame rate                     : 31.250 FPS (1536 spf)
    69. Bit depth                      : 16 bits
    70. Compression mode               : Lossy
    71. Stream size                    : 37.3 MiB (4%)
    72. Service kind                   : Complete Main

    73. Menu
    复制代码










    购买主题 已有 2 人购买  本主题需向作者支付 30 大洋 才能浏览
    回复

    使用道具 举报

  • TA的每日心情
    奋斗
    昨天 09:55
  • 签到天数: 337 天

    [LV.8]以坛为家I

    33

    主题

    3879

    帖子

    375

    积分

    超级影迷

    Rank: 6Rank: 6

    积分
    375
    发表于 2019-7-21 00:02:57 | 显示全部楼层
    论坛里很活跃,资源满天飞啊~~~
    回复

    使用道具 举报

  • TA的每日心情
    慵懒
    6 天前
  • 签到天数: 96 天

    [LV.6]常住居民II

    2

    主题

    536

    帖子

    96

    积分

    中级影迷

    Rank: 3Rank: 3

    积分
    96
    发表于 2019-7-21 12:41:15 | 显示全部楼层
    这几天资源更新很快
    回复

    使用道具 举报

    该用户从未签到

    0

    主题

    7

    帖子

    22

    积分

    入门影迷

    Rank: 1

    积分
    22
    发表于 2019-11-2 20:22:05 | 显示全部楼层
    这个好!想看的都找到了
    回复

    使用道具 举报

  • TA的每日心情
    开心
    2020-3-24 21:14
  • 签到天数: 1 天

    [LV.1]初来乍到

    0

    主题

    35

    帖子

    2

    积分

    入门影迷

    Rank: 1

    积分
    2
    发表于 2020-3-24 21:22:25 | 显示全部楼层
    这个好!想看的都找到了
    回复

    使用道具 举报

  • TA的每日心情
    慵懒
    昨天 10:58
  • 签到天数: 10 天

    [LV.3]偶尔看看II

    0

    主题

    29

    帖子

    38

    积分

    初级影迷

    Rank: 2

    积分
    38
    发表于 3 天前 | 显示全部楼层
    谢谢分享。
    回复

    使用道具 举报

    您需要登录后才可以回帖 登录 | 立即注册

    本版积分规则

    QQ|Archiver|手机版|小黑屋|影迷乐园  

    GMT+8, 2020-4-4 04:31 , Processed in 0.143783 second(s), 30 queries .

    Powered by Discuz! X3.3

    © 2001-2017 Comsenz Inc.

    快速回复 返回顶部 返回列表