请选择 进入手机版 | 继续访问电脑版

YMLY-影迷乐园-特效字幕 蓝光原盘 1080P 高清动漫电影电视剧

 找回密码
 立即注册
搜索
查看: 143|回复: 4

[国产] [百度][1995][VCD~3][大宋王朝赵匡胤][国语无字][陈希光.陈剑月][ISO][9.5GB]

[复制链接]
  • TA的每日心情
    奋斗
    2020-3-1 21:46
  • 签到天数: 446 天

    [LV.9]以坛为家II

    2702

    主题

    3220

    帖子

    9535

    积分

    影迷皇帝

    Rank: 20Rank: 20Rank: 20Rank: 20Rank: 20

    积分
    9535

    贵族勋章土豪勋章小土豪勋章主题达人百分百好孩子内测勋章最佳新人影迷女神十二生肖之猪水瓶座勋章富甲一方

    发表于 2019-8-14 07:03:57 | 显示全部楼层 |阅读模式


    ◎译  名 大宋王朝
    ◎片  名 大宋王朝赵匡胤
    ◎年  代 1995
    ◎产  地 中国大陆
    ◎类  别 历史
    ◎语  言 汉语普通话
    ◎上映日期 1995(中国大陆)
    ◎豆瓣评分 7.8/10 from 86 users
    ◎豆瓣链接 https://movie.douban.com/subject/6531247/
    ◎集  数 22
    ◎片  长 45分钟
    ◎导  演 顾琴芳 / 王洪湛
    ◎编  剧 赵国林 / 杜宝贵 / 吕志英
    ◎主  演 陈希光
           陈剑月


    ◎标  签 历史 | 宋朝 | 电视剧 | 历史剧 | 国产电视剧 | 宋 | 老电视剧 | 中国

    ◎简  介  

      经天宝年间安史之乱,巍巍大唐进入了无可逆转的衰败时期,辉煌不再,五代十国的混乱时代随即到来。群雄逐鹿中原,你方唱罢我登场,各方豪梁无不做着千秋帝王梦,却无一人能一统天下,收拾乱局,还百姓一个朗朗的太平世界。出身于军人家庭的赵匡胤自幼习得高强武艺,眼见得乱世无终,少年豪梁外出游历,并最终在枢密使郭威帐下投军。在军期间,赵匡胤屡立战功,伐南唐、拒契丹,渐渐成为后周政权下的一员猛将。及至陈桥兵变,黄袍加身,一代帝王赵匡胤终于开创了继唐王朝之后又一长命的政权宋王朝。
      本片讲述的就是宋太祖赵匡胤从发迹到践祚的波澜壮阔的英雄人生……
    1. General
    2. Format                         : MPEG-PS
    3. File size                      : 977 MiB
    4. Duration                       : 7 min 40 s
    5. Overall bit rate mode          : Variable
    6. Overall bit rate               : 17.8 Mb/s

    7. Video
    8. ID                             : 224 (0xE0)
    9. Format                         : MPEG Video
    10. Format version                 : Version 1
    11. Format settings, BVOP          : Yes
    12. Format settings, Matrix        : Custom
    13. Format settings, GOP           : Variable
    14. Duration                       : 7 min 40 s
    15. Bit rate mode                  : Variable
    16. Bit rate                       : 17.2 Mb/s
    17. Maximum bit rate               : 1 150 kb/s
    18. Width                          : 352 pixels
    19. Height                         : 288 pixels
    20. Display aspect ratio           : 4:3
    21. Frame rate                     : 25.000 FPS
    22. Standard                       : PAL
    23. Color space                    : YUV
    24. Chroma subsampling             : 4:2:0
    25. Bit depth                      : 8 bits
    26. Scan type                      : Progressive
    27. Compression mode               : Lossy
    28. Bits/(Pixel*Frame)             : 6.791
    29. Time code of first frame       : 00:00:00:00
    30. Time code source               : Group of pictures header
    31. GOP, Open/Closed               : Open
    32. Stream size                    : 944 MiB (97%)

    33. Audio
    34. ID                             : 192 (0xC0)
    35. Format                         : MPEG Audio
    36. Format version                 : Version 1
    37. Format profile                 : Layer 2
    38. Duration                       : 7 min 40 s
    39. Bit rate mode                  : Constant
    40. Bit rate                       : 224 kb/s
    41. Channel(s)                     : 2 channels
    42. Sampling rate                  : 48.0 kHz
    43. Compression mode               : Lossy
    44. Stream size                    : 12.3 MiB (1%)

    45. Menu
    复制代码


    购买主题 本主题需向作者支付 10 大洋 才能浏览
    回复

    使用道具 举报

  • TA的每日心情
    奋斗
    昨天 09:55
  • 签到天数: 337 天

    [LV.8]以坛为家I

    33

    主题

    3879

    帖子

    375

    积分

    超级影迷

    Rank: 6Rank: 6

    积分
    375
    发表于 2019-8-14 08:57:12 | 显示全部楼层
    感谢分享好资源!
    回复

    使用道具 举报

  • TA的每日心情
    开心
    2020-3-22 10:18
  • 签到天数: 207 天

    [LV.7]常住居民III

    10

    主题

    2263

    帖子

    760

    积分

    专业影迷

    Rank: 8Rank: 8

    积分
    760

    小土豪勋章土豪勋章

    发表于 2019-8-14 16:30:42 | 显示全部楼层
    感谢分享。。。
    1
    回复

    使用道具 举报

  • TA的每日心情
    奋斗
    2019-9-30 14:43
  • 签到天数: 43 天

    [LV.5]常住居民I

    2

    主题

    597

    帖子

    80

    积分

    中级影迷

    Rank: 3Rank: 3

    积分
    80
    发表于 2019-8-14 19:26:12 | 显示全部楼层

    感谢分享好资源!
    回复

    使用道具 举报

  • TA的每日心情
    开心
    2020-3-25 21:55
  • 签到天数: 116 天

    [LV.6]常住居民II

    1

    主题

    972

    帖子

    138

    积分

    中级影迷

    Rank: 3Rank: 3

    积分
    138
    发表于 2019-8-14 21:01:09 | 显示全部楼层
    谢谢分享!
    回复

    使用道具 举报

    您需要登录后才可以回帖 登录 | 立即注册

    本版积分规则

    QQ|Archiver|手机版|小黑屋|影迷乐园  

    GMT+8, 2020-4-4 05:08 , Processed in 0.142723 second(s), 31 queries .

    Powered by Discuz! X3.3

    © 2001-2017 Comsenz Inc.

    快速回复 返回顶部 返回列表