请选择 进入手机版 | 继续访问电脑版

YMLY-影迷乐园-特效字幕 蓝光原盘 1080P 高清动漫电影电视剧

 找回密码
 立即注册
搜索
查看: 170|回复: 3

[国产] [百度][2005][DVD5~14][宝莲灯][国语中字][曹骏.舒畅][ISO][49.43GB]

[复制链接]
  • TA的每日心情
    奋斗
    2020-3-1 21:46
  • 签到天数: 446 天

    [LV.9]以坛为家II

    2702

    主题

    3220

    帖子

    9533

    积分

    影迷皇帝

    Rank: 20Rank: 20Rank: 20Rank: 20Rank: 20

    积分
    9533

    贵族勋章土豪勋章小土豪勋章主题达人百分百好孩子内测勋章最佳新人影迷女神十二生肖之猪水瓶座勋章富甲一方

    发表于 2019-7-8 22:47:00 | 显示全部楼层 |阅读模式



    ◎译  名 Lotus Lantern / 新宝莲灯
    ◎片  名 宝莲灯
    ◎年  代 2005
    ◎产  地 中国大陆
    ◎类  别 剧情 / 奇幻 / 古装
    ◎语  言 汉语普通话
    ◎上映日期 2005-10-04(中国大陆)
    ◎IMDb评分  5.8/10 from 5 users
    ◎IMDb链接  http://www.imdb.com/title/tt4776994
    ◎豆瓣评分 6.8/10 from 21993 users
    ◎豆瓣链接 https://movie.douban.com/subject/2327493/
    ◎集  数 35
    ◎片  长 46分钟
    ◎导  演 余明生 Mang San Yu
    ◎编  剧 九年 Nian Jiu
    ◎主  演 曹骏 Jun Cao
          舒畅 Chang Shu
          焦恩俊 Vincent Chiao
          林湘萍 Yvonne Lim
          刘冠翔 Guanxiang Liu
          刘晓庆 Xiaoqing Liu
          刘小锋  Xiaofeng Liu
          朴诗妍 Si-hyeon Park
          颜丹晨 Danchen Yan
          谢宁 Ning Xie
          王卫国 Weiguo Wang
          陈创 Chuang Chen
          丁健 Jian Ding
          洛葳 Wei Luo
          张志超 Zhichao Zhang
          游本昌 Benchang You
          田二喜 Erxi Tian
          周洁 Jie Zhou
          吴国华 Guohua Wu
          汪永贵 Yonggui Wang
          李保成 Baocheng Li
          赵书君
          李健迅
          朱亚英 Yaying Zhu
          刘洁 Jie Liu
          李佳艺
          叶伊娜
          马丽清
          杨斯 Si Yang
          王文升 Wensheng Wang
          马杰林 Jielin Ma
          田学民 Xuemin Tian
          赵奇
          宗峰岩
          万妮恩 Ni'en Wan
          罗光跃
          李斗
          唐颖
          刘书兴
          史良
          成苏东
          陆兵
          王翔 Xiang Wang
          姚长江
          习先锋
          袁寒
          申洁
          邓佳
          郭晔
          王佳渝
          张楠 Nan Zhang


    ◎标  签 电视剧 | 古装 | 国产电视剧 | 神话 | 宝莲灯 | 焦恩俊 | 大陆 | 看过的电视剧

    ◎简  介  

      小镇少年沉香(曹骏 饰)和父亲刘彦昌(刘小锋 饰)一直都生活的很平静,直到有一日,沉香意外发现自己体内居然蕴含着“法力”,能够不费吹灰之力的穿墙而过。父亲得知后,告诉了沉香掩藏了多年的事实,那就是沉香的母亲其实是天上的三圣母(朴美萱 饰),因为违反天规,和身为凡人的自己成婚,现在被天庭抓取,不知去向。得知真相的沉香无比震惊,决定排除万年解救自己的母亲。将一切看在眼底的二郎神(焦恩俊 饰),也就是沉香的舅舅,决定组阻止沉香的救母之旅。
    于是,这场困难重重的救母之行在二郎神的干扰中拉开序幕。征程上,沉香邂逅了许多善良的人精怪,也遇到了各种阻力,甚至想要放弃过。但最终都抵不过救母的决心……

    1. General
    2. Format                         : MPEG-PS
    3. File size                      : 1 024 MiB
    4. Duration                       : 26 min 14 s
    5. Overall bit rate mode          : Constant
    6. Overall bit rate               : 5 454 kb/s

    7. Video
    8. ID                             : 224 (0xE0)
    9. Format                         : MPEG Video
    10. Format version                 : Version 2
    11. Format profile                 : Main@Main
    12. Format settings, BVOP          : Yes
    13. Format settings, Matrix        : Custom
    14. Format settings, GOP           : M=3, N=12
    15. Format settings, picture struc : Frame
    16. Duration                       : 26 min 14 s
    17. Bit rate mode                  : Constant
    18. Bit rate                       : 4 962 kb/s
    19. Maximum bit rate               : 4 400 kb/s
    20. Width                          : 720 pixels
    21. Height                         : 576 pixels
    22. Display aspect ratio           : 4:3
    23. Frame rate                     : 25.000 FPS
    24. Standard                       : PAL
    25. Color space                    : YUV
    26. Chroma subsampling             : 4:2:0
    27. Bit depth                      : 8 bits
    28. Scan type                      : Interlaced
    29. Scan order                     : Top Field First
    30. Compression mode               : Lossy
    31. Bits/(Pixel*Frame)             : 0.479
    32. Time code of first frame       : 00:00:00:00
    33. Time code source               : Group of pictures header
    34. GOP, Open/Closed               : Closed
    35. Stream size                    : 931 MiB (91%)

    36. Audio
    37. ID                             : 189 (0xBD)-128 (0x80)
    38. Format                         : AC-3
    39. Format/Info                    : Audio Coding 3
    40. Format settings, Endianness    : Big
    41. Muxing mode                    : DVD-Video
    42. Duration                       : 26 min 14 s
    43. Bit rate mode                  : Constant
    44. Bit rate                       : 384 kb/s
    45. Channel(s)                     : 6 channels
    46. Channel positions              : Front: L C R, Side: L R, LFE
    47. Sampling rate                  : 48.0 kHz
    48. Frame rate                     : 31.250 FPS (1536 spf)
    49. Bit depth                      : 16 bits
    50. Compression mode               : Lossy
    51. Stream size                    : 72.1 MiB (7%)
    52. Service kind                   : Complete Main

    53. Menu
    复制代码








    购买主题 已有 2 人购买  本主题需向作者支付 50 大洋 才能浏览
    回复

    使用道具 举报

  • TA的每日心情
    奋斗
    昨天 09:55
  • 签到天数: 337 天

    [LV.8]以坛为家I

    33

    主题

    3879

    帖子

    375

    积分

    超级影迷

    Rank: 6Rank: 6

    积分
    375
    发表于 2019-7-9 00:06:47 | 显示全部楼层
    谢谢楼主分享!辛苦了
    回复

    使用道具 举报

  • TA的每日心情
    慵懒
    2019-12-1 15:50
  • 签到天数: 19 天

    [LV.4]偶尔看看III

    0

    主题

    42

    帖子

    8

    积分

    入门影迷

    Rank: 1

    积分
    8
    发表于 2019-11-29 20:29:39 | 显示全部楼层
    感谢楼主的分享
    回复

    使用道具 举报

    该用户从未签到

    0

    主题

    9

    帖子

    12

    积分

    入门影迷

    Rank: 1

    积分
    12
    发表于 2019-11-30 12:57:49 | 显示全部楼层
    感谢楼主分享
    回复

    使用道具 举报

    您需要登录后才可以回帖 登录 | 立即注册

    本版积分规则

    QQ|Archiver|手机版|小黑屋|影迷乐园  

    GMT+8, 2020-4-4 04:10 , Processed in 0.144435 second(s), 32 queries .

    Powered by Discuz! X3.3

    © 2001-2017 Comsenz Inc.

    快速回复 返回顶部 返回列表