请选择 进入手机版 | 继续访问电脑版

YMLY-影迷乐园-特效字幕 蓝光原盘 1080P 高清动漫电影电视剧

 找回密码
 立即注册
搜索
查看: 183|回复: 2

[香港] [百度][1996][DVD5~20][千王之王重出江湖][国粤双语中字][谢贤.刘松仁][ISO][79.74GB]

[复制链接]
  • TA的每日心情
    奋斗
    2020-3-1 21:46
  • 签到天数: 446 天

    [LV.9]以坛为家II

    2702

    主题

    3220

    帖子

    9535

    积分

    影迷皇帝

    Rank: 20Rank: 20Rank: 20Rank: 20Rank: 20

    积分
    9535

    贵族勋章土豪勋章小土豪勋章主题达人百分百好孩子内测勋章最佳新人影迷女神十二生肖之猪水瓶座勋章富甲一方

    发表于 2019-8-18 05:24:37 | 显示全部楼层 |阅读模式


    ◎片  名 千王之王重出江湖
    ◎年  代 1996
    ◎产  地 香港
    ◎类  别 剧情 / 冒险
    ◎语  言 普通话/国语,粤语
    ◎上映日期 1996-04-15(香港)
    ◎豆瓣评分 8.4/10 from 1,457 users
    ◎豆瓣链接 https://movie.douban.com/subject/3120220/
    ◎集  数 40
    ◎片  长 45分钟
    ◎导  演 曾谨昌
    ◎编  剧 陈十三
    ◎主  演 谢贤
           刘松仁
           黄仲昆
           叶童
           米雪
           杨恭如

    ◎标  签 港剧 | 看过的电视剧 | 谢贤 | 华语标签 | 赌片 | 刘松仁 | 香港 | 电视剧

    ◎简  介

      上世纪20年代旧上海,俨然一个冒险家的乐园。成千上万的人蜂拥至此,只为实现那“一朝富贵,平步青云”的美梦。当然,正引起巨大的诱惑性,各色人等纷繁踏至,鱼龙混杂,好一个混乱喧闹所在。
      经历七年牢狱之灾,赌界名人龙四爷(谢贤 饰)重返上海滩,追被夺回他所失去的一切。在火车上,龙四结识包括蓝鹰、杜百川、徐大山、成昆(黄仲昆 饰)等十几位好汉,这十三人虽结为兄弟,同闯天下。龙四初战告捷,一战打败黄海所有高手,并将其赌场据为己有,随后更拿下赌场大鳄其善。前后只用七天时间,龙四重新称霸上海赌场。在此之后,他将旗下赌场分给十二位结拜兄弟打理。然而自古“苦同享、富难当”,利欲熏心的成昆意欲借此作大,上演了手足相残的连番恶斗……
    1. General

    2. Format                         : MPEG-PS
    3. File size                      : 1 024 MiB
    4. Duration                       : 21 min 4 s
    5. Overall bit rate mode          : Variable
    6. Overall bit rate               : 6 794 kb/s
    7. Writing library                : encoded by TMPGEnc Authoring Works 4 Version. 4.0.11.39

    8. Video
    9. ID                             : 224 (0xE0)
    10. Format                         : MPEG Video
    11. Format version                 : Version 2
    12. Format profile                 : Main@Main
    13. Format settings, BVOP          : Yes
    14. Format settings, Matrix        : Custom
    15. Format settings, GOP           : Variable
    16. Duration                       : 21 min 4 s
    17. Bit rate mode                  : Variable
    18. Bit rate                       : 5 987 kb/s
    19. Maximum bit rate               : 9 008 kb/s
    20. Width                          : 720 pixels
    21. Height                         : 576 pixels
    22. Display aspect ratio           : 4:3
    23. Frame rate                     : 25.000 FPS
    24. Standard                       : PAL
    25. Color space                    : YUV
    26. Chroma subsampling             : 4:2:0
    27. Bit depth                      : 8 bits
    28. Scan type                      : Progressive
    29. Compression mode               : Lossy
    30. Bits/(Pixel*Frame)             : 0.577
    31. Time code of first frame       : 00:00:00:00
    32. Time code source               : Group of pictures header
    33. Stream size                    : 902 MiB (88%)
    34. Writing library                : TMPGEnc Authoring Works 4 Version. 4.0.11.39
    35. Color primaries                : BT.601 PAL
    36. Transfer characteristics       : BT.470 System B, BT.470 System G
    37. Matrix coefficients            : BT.601

    38. Audio #1
    39. ID                             : 189 (0xBD)-128 (0x80)
    40. Format                         : AC-3
    41. Format/Info                    : Audio Coding 3
    42. Format settings, Endianness    : Big
    43. Muxing mode                    : DVD-Video
    44. Duration                       : 21 min 3 s
    45. Bit rate mode                  : Constant
    46. Bit rate                       : 448 kb/s
    47. Channel(s)                     : 2 channels
    48. Channel positions              : Front: L R
    49. Sampling rate                  : 48.0 kHz
    50. Frame rate                     : 31.250 FPS (1536 spf)
    51. Bit depth                      : 16 bits
    52. Compression mode               : Lossy
    53. Stream size                    : 67.5 MiB (7%)
    54. Service kind                   : Complete Main

    55. Audio #2
    56. ID                             : 189 (0xBD)-129 (0x81)
    57. Format                         : AC-3
    58. Format/Info                    : Audio Coding 3
    59. Format settings, Endianness    : Big
    60. Muxing mode                    : DVD-Video
    61. Duration                       : 21 min 3 s
    62. Bit rate mode                  : Constant
    63. Bit rate                       : 224 kb/s
    64. Channel(s)                     : 2 channels
    65. Channel positions              : Front: L R
    66. Sampling rate                  : 48.0 kHz
    67. Frame rate                     : 31.250 FPS (1536 spf)
    68. Bit depth                      : 16 bits
    69. Compression mode               : Lossy
    70. Stream size                    : 33.7 MiB (3%)
    71. Service kind                   : Complete Main

    72. Menu
    复制代码






    购买主题 本主题需向作者支付 30 大洋 才能浏览
    回复

    使用道具 举报

  • TA的每日心情
    奋斗
    昨天 09:55
  • 签到天数: 337 天

    [LV.8]以坛为家I

    33

    主题

    3879

    帖子

    375

    积分

    超级影迷

    Rank: 6Rank: 6

    积分
    375
    发表于 2019-8-18 09:53:52 | 显示全部楼层
    社区的资源就是丰富。感谢!
    回复

    使用道具 举报

  • TA的每日心情
    开心
    2020-3-22 10:18
  • 签到天数: 207 天

    [LV.7]常住居民III

    10

    主题

    2263

    帖子

    760

    积分

    专业影迷

    Rank: 8Rank: 8

    积分
    760

    小土豪勋章土豪勋章

    发表于 2019-8-18 11:15:19 | 显示全部楼层
    感谢分享。。。
    1
    回复

    使用道具 举报

    您需要登录后才可以回帖 登录 | 立即注册

    本版积分规则

    QQ|Archiver|手机版|小黑屋|影迷乐园  

    GMT+8, 2020-4-4 04:43 , Processed in 0.149992 second(s), 31 queries .

    Powered by Discuz! X3.3

    © 2001-2017 Comsenz Inc.

    快速回复 返回顶部 返回列表